Pyaar Ke Side Effect (2006) Hindi 720p B Torrent Free Download

Seeders : 917   &   Leechers : 435      12-02-2019 (3 days)
Pyaar Ke Side Effect (2006) Hindi 720p B Torrent Download
Added: ago by Sungeorge ***** in Movies   1.8 GB   Hits : 13
Info Hash: A117D148413E574F81B222646D320E3EC02E634D Download
Pyaar Ke Side Effect (2006) Hindi 720p B Torrent Download

Anonymous and Direct Download movies , software , shows...

Fast Safe Anonymous
movies, software, shows...

Torrent Description



Pyaar Ke Side Effect (2006) Hindi 720p Bluray x264 AC3 DD 5.1 ESubs-Sun George (Requested)






http://www.imdb.com/title/tt0480572/













===================================================================


Source : DTOne (Thanks)


General
Format : Matroska
Format version : Version 4 / Version 2
File size : 1.74 GiB
Duration : 2 h 12 min
Overall bit rate : 1 880 kb/s
Movie name : Pyaar Ke Side Effect (2006) Hindi 720p Bluray x264 AC3 DD 5.1 ESubs-Sun George (Requested)


===================================================================


Video
ID : 1
Format : AVC
Format/Info : Advanced Video Codec
Format profile : [email protected]
Format settings : CABAC / 5 Ref Frames
Format settings, CABAC : Yes
Format settings, ReFrames : 5 frames
Codec ID : V_MPEG4/ISO/AVC
Duration : 2 h 12 min
Bit rate : 1 500 kb/s
Width : 1 280 pixels
Height : 544 pixels
Display aspect ratio : 2.35:1
Frame rate mode : Constant
Frame rate : 24.000 FPS
Color space : YUV
Chroma subsampling : 4:2:0
Bit depth : 8 bits
Scan type : Progressive
Bits/(Pixel*Frame) : 0.090
Stream size : 1.38 GiB (79%)
Title : Sun George


===================================================================


Audio
ID : 2
Format : AC-3
Format/Info : Audio Coding 3
Commercial name : Dolby Digital
Codec ID : A_AC3
Duration : 2 h 12 min
Bit rate mode : Constant
Bit rate : 384 kb/s
Channel(s) : 6 channels
Channel layout : L R C LFE Ls Rs
Sampling rate : 48.0 kHz
Frame rate : 31.250 FPS (1536 SPF)
Bit depth : 16 bits
Compression mode : Lossy
Stream size : 365 MiB (20%)
Title : Sun George
Language : Hindi
Service kind : Complete Main
Default : Yes
Forced : No

Text
ID : 3
Format : PGS
Muxing mode : zlib
Codec ID : S_HDMV/PGS
Codec ID/Info : Picture based subtitle format used on BDs/HD-DVDs
Duration : 2 h 10 min
Bit rate : 31.0 kb/s
Count of elements : 4014
Stream size : 29.0 MiB (2%)
Title : Sun George
Language : English
Default : Yes
Forced : Yes



















Sharing Widget


No Comments For This Torrent . Be The First to Comment

You must Login to Comment . Click Here to Login

Menu 1

Some content in menu 1.

Pyaar Ke Side Effect (2006) Hindi 720p Bluray x264 AC3 DD 5 1 ESubs-Su (Size: 1.8 GB)
  Pyaar Ke Side Effect (2006) Hindi 720p Bluray x264 AC3 DD 5 1 ESubs-Su 1.8 GB
tracker name
udp://tracker.leechers-paradise.org:6969/announce
udp://zer0day.ch:1337/announce
udp://open.demonii.com:1337/announce
udp://tracker.coppersurfer.tk:6969/announce
udp://exodus.desync.com:6969/announce
µTorrent compatible trackers list

Relative Torrents

Torrent Name Size Age SEED LEECH
Grantchester S04 1080P RB58
Posted by    RedBaron58   in   TV
6.0 GB 20 seconds 205 913
The Last Leg S16E04 480p x264-mSD [eztv]
Posted by    EZTVag   in   TV
185.0 MB 20 seconds 214 421
The Blacklist S06E07 720p HDTV x265-MiNXTGx]
Posted by    mazemaze16   in   TV
162.6 MB 20 seconds 732 245
Blue Bloods S09E15 XviD-AFG[TGx]
Posted by    mazemaze16   in   TV
324.1 MB 20 seconds 319 236
Blue Bloods S09E15 480p x264-mSD [eztv]
Posted by    EZTVag   in   TV
139.4 MB 20 seconds 87 224